iTunes

1+1

iTunes

мы

iTunes

1

iTunes

Чернобыль

1 сезон

Ральф против интернета

Лицензия

ПШазам

Лицензия

Игра престолов

Лицензия

30
pack

ВАЖНО

!!Акция!!

Alien_RageХит недели

RePack

Resident Evil 21

ИГРА 18+

pack

RePack

Metro:Exodus

!!Акция!!

Alien_Rage

RePack

fifa19

RePack

Assassins Creed: Odyssey

RePack

NEED FOR SPEED™ PAYBACK

3 сезон

9 сезон

Бесстыжие 9 сезон

Все сериалы

все сериалы на PB.wtf

RePack

FAR CRY 5
Ребята, катастрофически не хватает 7730р. для оплаты серверов за ИЮЛЬ (всвязи с блокировками трафик упал в 3 раза), 1-2р., выручайте.
  

Снегопад / Snowfall / Сезон: 3 / Серии: 1-5 из 10 (Дэниэл Эттиэс) [2019, драма, криминал, WEB-DLRip] [MVO] (Кубик в Кубе) pirat-bitru.gq

Снегопад через торрент pirat-bitru.gq

Раздают: 1 [ 0 KB/s ] Качают: 1 [ 0 KB/s ]
Размер: 4.31 GB | Добавлен: 3 д. назад | Торрент скачан:6 раз
Скачать  

17-07-2019 17:16 Снегопад Скачать торрент  

Снегопад | Snowfall
«***»

Страна: США
Год выпуска: 2019
Жанр: драма, криминал
Продолжительность: ~ 00:50:00

Перевод: Профессиональный (двухголосый закадровый) |*Кубик в Кубе*|
Режиссёр: Дэниэл Эттиэс, Майкл Леманн, Джон Синглтон
В ролях: Серхио Перис-Менчета, Эймин Джозеф, Айзиа Джон, Клаудия Абрего, Рой Авигдори, Лиана Легаспи, Адам Карст, Бернардо Бадилло, Ник Бишоп, Маркис Мур
Описание:
Сериал о начале кокаиновой эпидемии в Лос-Анджелесе начала 1980-х, когда на улицах Америки появился дешёвый крэк из Доминиканы, и страну захлестнул неконтролируемый рост преступности. События увидены глазами трёх главных героев: уличного торговца Джерома, гангстера Густаво и Леона, парня из благопристойного семейства.



Качество видео: WEB-DLRip
Формат: AVI
Видео: XviD, 720 x 400 (1.800) at 23.976 fps, ~2000 kbps, 0.29 Bits/Pixel
Аудио Rus: AC-3, 48 kHz, 6 ch, 384 kbps |Кубик в Кубе|
Аудио Eng: AC-3, 48 kHz, 6 ch, 384 kbps |Original|
Субтитры: Английские
Релиз:
Работа со звуком: messafan

Общее
Полное имя : E:\_Сериалы\_Сериалы\Снегопад\Snowfall.S03.WEB-DLRip.KvK.CasStudio\Snowfall.S03E01.Protect.and.Swerve.WEB-DLRip.KvK.CasStudio.avi
Формат : AVI
Формат/Информация : Audio Video Interleave
Размер файла : 996 Мбайт
Продолжительность : 49 м. 58 с.
Общий поток : 2785 Кбит/сек
Программа кодирования : VirtualDubMod 1.5.10.3 | www.virtualdub-fr.org || (build 2550/release)
Библиотека кодирования : VirtualDubMod build 2550/release

Видео
Идентификатор : 0
Формат : MPEG-4 Visual
Профиль формата : Advanced Simple@L5
Настройки формата : BVOP1
Параметр BVOP формата : 1
Параметр QPel формата : Нет
Параметр GMC формата : Без точки перехода
Параметр матрицы формата : Default (MPEG)
Идентификатор кодека : XVID
Идентификатор кодека/Подсказка : XviD
Продолжительность : 49 м. 58 с.
Битрейт : 2003 Кбит/сек
Ширина : 720 пикселей
Высота : 400 пикселей
Соотношение сторон : 16:9
Частота кадров : 23,976 (24000/1001) кадра/сек
Цветовое пространство : YUV
Субдискретизация насыщенности : 4:2:0
Битовая глубина : 8 бит
Тип развёртки : Прогрессивная
Метод сжатия : С потерями
Бит/(Пиксели*Кадры) : 0.290
Размер потока : 716 Мбайт (72%)
Библиотека кодирования : XviD 1.2.1 (UTC 2008-12-04)

Аудио #1
Идентификатор : 1
Формат : AC-3
Формат/Информация : Audio Coding 3
Коммерческое название : Dolby Digital
Идентификатор кодека : 2000
Продолжительность : 49 м. 58 с.
Вид битрейта : Постоянный
Битрейт : 384 Кбит/сек
Каналы : 6 каналов
ChannelLayout : L R C LFE Ls Rs
Частота : 48,0 КГц
Частота кадров : 31,250 кадров/сек (1536 SPF)
Битовая глубина : 16 бит
Метод сжатия : С потерями
Размер потока : 137 Мбайт (14%)
Выравнивание : Разделение по промежуткам
Продолжительность промежутка : 42 мс. (1,00 видеокадр)
Время предзагрузки промежутка : 500 мс.
ServiceKind/String : Complete Main

Аудио #2
Идентификатор : 2
Формат : AC-3
Формат/Информация : Audio Coding 3
Коммерческое название : Dolby Digital
Идентификатор кодека : 2000
Продолжительность : 49 м. 58 с.
Вид битрейта : Постоянный
Битрейт : 384 Кбит/сек
Каналы : 6 каналов
ChannelLayout : L R C LFE Ls Rs
Частота : 48,0 КГц
Частота кадров : 31,250 кадров/сек (1536 SPF)
Битовая глубина : 16 бит
Метод сжатия : С потерями
Размер потока : 137 Мбайт (14%)
Выравнивание : Разделение по промежуткам
Продолжительность промежутка : 42 мс. (1,00 видеокадр)
Время предзагрузки промежутка : 500 мс.
ServiceKind/String : Complete Main

скриншот  скриншот  скриншот  

Раздача ведётся путём добавления новых серий; при каждом добавлении создаётся новый торрент.
Чтобы начать докачку новой серии, пользователям необходимо сделать следующее:
1. остановить скачивание,
2. удалить старый торрент у себя из клиента (старые серии удалять не надо),
3. скачать новый торрент и запустить его у себя в клиенте вместо старого, при этом указать клиенту путь в старую папку, куда и должно происходить скачивание новых серий.

Ваш клиент при этом должен произвести хеширование (проверку) старой папки (если не производит сам - помогите ему сделать это), и будет докачивать только те серии которых у вас ещё нет. Старые серии при этом не удаляются, а продолжают раздаваться!

Eсли вы уже удалили старые серии, то предотвратить повторную закачку старых серий можно, отжав галочку в соответствующих местах при запуске нового торрента. По возможности, желательно не удалять старые серии как можно дольше, чтобы релизёр не столько продолжал раздавать старые серии, а смог сконцентрироваться на новых.

Совет для тех, кто не хочет ждать перехеширования:
Создайте ещё одну папку рядом с папкой сериала (рядом, а не в ней!!!). Каждую новую серию после удачной загрузки копируйте в новую папку так чтобы ваша основная папка всегда была пуста. Когда ваш новый торрент предложит вам закачать все файлы, выберете только последнюю. Для сидирования же укажите адрес новой папки.

Как закачать отдельный файл из торрента или докачать ранее пропущенные файлы торрента!

1. Открыть торрент
2. Снять галки с тех файлов торрента, которые мы не хотим закачивать. Оставляем только на нужных нам файлах (файле).
3. Нажать О.К.

В клиенте utorrent

Инструкция

1) Открыть торрент


2) Снять галки с тех файлов торрента, которые мы не хотим закачивать:

* либо вручную, снимая с каждого файла галку( скрин №1)
* либо, нажав кнопку "Снять метки (Select None)", сняв сразу со всех файлов(скрин №2)
№1

№2

Оставляем только на нужных нам файлах (файле).

3)Нажать О.К

Приятного просмотра!!!pirat-bitru.gq



Скачать Снегопад через торрент https://i4.imageban.ru/out/2019/07/17/e4c69b7617348a65bf94e9fb0daede67.png Скачать фильм Снегопад через торрент бесплантно в хорошем качестве Описание:Сериал о начале кокаиновой эпидемии в Лос-Анджелесе начала 1980-х, когда на улицах Америки появился дешёвый крэк из Доминиканы, и ... 10 10 4
Торрент: Зарегистрирован [2019-08-16 18:13] · скачан: 6 раз
Статус: √ проверено
Размер: 4.31 GB
Как cкачать? Как скачать Снегопад через торрент | qTorrent

% Раздел Тема Автор DL S | L
Зарубежные сериалы [ 17.92 GB ] Снегопад / Snowfall / Сезон: 3 / Серия: 1-5 из 10 [2019 WEB-DL 1080p] [MVO] + [DVO] killermax2013 Скачать
1 | 0
T Зарубежные сериалы [ 10.3 GB ] Снегопад / Snowfall / Сезон: 3 / Серии: 1-5 из 10 [2019 WEBRip 1080p] MVO [Octopus] bober100 Скачать
1 | 0
Зарубежные сериалы [ 3.67 GB ] Снегопад / Snowfall / Сезон: 3 / Серии: 1-5 из 10 [2019 WEB-DLRip] MVO [TVShows] bober100 Скачать
1 | 0
Зарубежные сериалы [ 3.18 GB ] Снегопад / Snowfall / Сезон: 3 / Серия: 1-5 из 10 [2019 WEB-DLRip] [MVO] killermax2013 Скачать
1 | 0
Зарубежные сериалы [ 1.84 GB ] Снегопад / Snowfall / Сезон 3 / Серии 1-5 из 10 [2019 WEBRip] [DVO] killermax2013 Скачать
1 | 0


>> Регистрируемся здесь <<






Отзывы и комментарии о схеме читаем и пишем здесь: ---> Отзывы и комментарии о схеме

Новые благодарочки в телеграм довольных пользователей:
скриншот   скриншот   скриншот   скриншот   скриншот
    Дорогой пользователь! Огромная просьба, поблагодарите релизера, оцените раздачу и оставьте свои комментарий, если Вы скачали Снегопад через торрент бесплатно! Внесите свою лепту в развитие PiratBit!
    Комментировать посты могут только пользователи прошедшие не сложную регистрацию
    Показать сообщения:    

    Снегопад через торрент
    Скачать бесплатно Снегопад
    Снегопад скачать торрент
    Снегопад смотреть онлайн
    Cкачать фильм Снегопад бесплатно
    Снегопад скачать торрент в хорошем качестве
    Снегопад смотреть онлайн бесплатно в хорошем качестве


    Вы не можете начинать темы
    Вы не можете отвечать на сообщения
    Вы не можете редактировать свои сообщения
    Вы не можете удалять свои сообщения
    Вы не можете голосовать в опросах
    Вы не можете прикреплять файлы к сообщениям
    Вы можете скачивать файлы