iTunes

1+1

iTunes

мы

iTunes

1

iTunes

Чернобыль

1 сезон

Ральф против интернета

Лицензия

ПШазам

Лицензия

Игра престолов

Лицензия

30
pack

ВАЖНО

!!Акция!!

Alien_RageХит недели

RePack

Resident Evil 21

ИГРА 18+

pack

RePack

Metro:Exodus

!!Акция!!

Alien_Rage

RePack

fifa19

RePack

Assassins Creed: Odyssey

RePack

NEED FOR SPEED™ PAYBACK

3 сезон

9 сезон

Бесстыжие 9 сезон

Все сериалы

все сериалы на PB.wtf

RePack

FAR CRY 5
Ребята, катастрофически не хватает 7730р. для оплаты серверов за ИЮЛЬ (всвязи с блокировками трафик упал в 3 раза), 1-2р., выручайте.
  

Ральф против интернета / Ralph Breaks the Internet (Фил Джонстон, Рич Мур) [2018, мультфильм, фэнтези, комедия, приключения, семейный, BDRip-HEVC 1080p, (10 bit)] DUB [Лицензия] pirat-bitru.gq

Ральф против интернета через торрент pirat-bitru.gq

Раздают: 1 [ 0 KB/s ]
Размер: 5.84 GB | Добавлен: 20 д. назад | Торрент скачан:32 раза
Скачать  

30-07-2019 18:20 Ральф против интернета Скачать торрент  

Ральф против интернета / Ralph Breaks the Internet Год выпуска: 2018
Страна: США
Жанр: мультфильм, фэнтези, комедия, приключения, семейный
Продолжительность: 01:52:31
Перевод: Дублированный | Лицензия
Субтитры: Русские (форсированные, полные), английские (полные)

Режиссер: Фил Джонстон, Рич Мур

rating

В ролях:

Джон Си Райли (Ralph, озвучка), Сара Силверман (Vanellope, озвучка), Галь Гадот (Shank, озвучка), Тараджи П. Хенсон (Yesss, озвучка), Джек МакБрайер (Felix, озвучка), Джейн Линч (Calhoun, озвучка), Алан Тьюдик (KnowsMore, озвучка), Альфред Молина (Double Dan, озвучка), Эд О’Нил (Mr. Litwak, озвучка), Шон Джамброун (The Eboy, озвучка), Флула Борг (Maybe, озвучка), Тимоти С. Саймонс (Butcher Boy, озвучка)
Описание: На этот раз Ральф и Ванилопа фон Кекс выйдут за пределы зала игровых автоматов и отправятся покорять бескрайние просторы Интернета, который может и не выдержать сокрушительного обаяния громилы.

Качество: BDRip-HEVC 1080p
Формат: MKV

Видео: HEVC/H.265, 1920x804, ~6146 Kbps, 10 bit
Аудио#1: AC3, 6 ch, 640 Kbps | Русский, Дублированный (Лицензия)
Аудио#2: AC3, 6 ch, 640 Kbps | Английский
скриншот  скриншот  скриншот  

скриншот  скриншот  скриншот  

Общее
Уникальный идентификатор : 325499314019095683373880435479917270268 (0xF4E0E3381841E0389F3D87E7CCB294FC)
Полное имя : Ральф против интернета (2018) BDRip 1080p [HEVC] 10 bit.mkv
Формат : Matroska
Версия формата : Version 4
Размер файла : 5,84 Гбайт
Продолжительность : 1 ч. 52 м.
Общий поток : 7429 Кбит/сек
Название фильма : Ральф против интернета (2018) Encoded_by_M@kSIMus
Дата кодирования : UTC 2019-04-12 06:15:39
Программа кодирования : mkvmerge v28.0.0 ('Voice In My Head') 64-bit
Библиотека кодирования : libebml v1.3.6 + libmatroska v1.4.9
Обложка : Yes
Attachments : cover.jpg

Видео
Идентификатор : 1
Формат : HEVC
Формат/Информация : High Efficiency Video Coding
Профиль формата : Main 10@L4.1@High
Идентификатор кодека : V_MPEGH/ISO/HEVC
Продолжительность : 1 ч. 52 м.
Битрейт : 6146 Кбит/сек
Ширина : 1920 пикселей
Высота : 804 пикселя
Соотношение сторон : 2,40:1
Режим частоты кадров : Постоянный
Частота кадров : 23,976 (24000/1001) кадра/сек
Цветовое пространство : YUV
Субдискретизация насыщенности : 4:2:0
Битовая глубина : 10 бит
Бит/(Пиксели*Кадры) : 0.166
Размер потока : 4,83 Гбайт (83%)
Заголовок : Ральф против интернета (2018) Encoded_by_M@kSIMus
Библиотека кодирования : x265 2.9+9-f74003e88622:[Windows][GCC 8.2.0][64 bit] 10bit
Настройки программы : cpuid=1049583 / frame-threads=5 / numa-pools=4 / wpp / no-pmode / no-pme / no-psnr / no-ssim / log-level=3 / input-csp=1 / input-res=1920x804 / interlace=0 / total-frames=0 / level-idc=41 / high-tier=1 / uhd-bd=0 / ref=5 / allow-non-conformance / no-repeat-headers / annexb / no-aud / no-hrd / info / hash=0 / no-temporal-layers / open-gop / min-keyint=24 / keyint=240 / gop-lookahead=0 / bframes=16 / b-adapt=2 / b-pyramid / bframe-bias=0 / rc-lookahead=40 / lookahead-slices=5 / scenecut=40 / radl=0 / no-intra-refresh / ctu=32 / min-cu-size=8 / rect / no-amp / max-tu-size=32 / tu-inter-depth=4 / tu-intra-depth=4 / limit-tu=1 / rdoq-level=1 / dynamic-rd=0.00 / no-ssim-rd / signhide / no-tskip / nr-intra=0 / nr-inter=0 / no-constrained-intra / no-strong-intra-smoothing / max-merge=4 / limit-refs=3 / no-limit-modes / me=3 / subme=7 / merange=57 / temporal-mvp / weightp / weightb / no-analyze-src-pics / deblock=-3:-3 / no-sao / no-sao-non-deblock / rd=4 / no-early-skip / no-rskip / no-fast-intra / no-tskip-fast / no-cu-lossless / no-b-intra / no-splitrd-skip / rdpenalty=0 / psy-rd=2.00 / psy-rdoq=1.00 / no-rd-refine / no-lossless / cbqpoffs=0 / crqpoffs=0 / rc=crf / crf=19.0 / qcomp=0.60 / qpstep=4 / stats-write=0 / stats-read=0 / vbv-maxrate=50000 / vbv-bufsize=50000 / vbv-init=0.9 / crf-max=0.0 / crf-min=0.0 / ipratio=1.40 / pbratio=1.30 / aq-mode=3 / aq-strength=1.00 / no-cutree / zone-count=0 / no-strict-cbr / qg-size=32 / no-rc-grain / qpmax=69 / qpmin=0 / no-const-vbv / sar=1 / overscan=0 / videoformat=5 / range=0 / colorprim=1 / transfer=1 / colormatrix=1 / chromaloc=0 / display-window=0 / max-cll=0,0 / min-luma=0 / max-luma=1023 / log2-max-poc-lsb=8 / vui-timing-info / vui-hrd-info / slices=1 / no-opt-qp-pps / no-opt-ref-list-length-pps / no-multi-pass-opt-rps / scenecut-bias=0.05 / no-opt-cu-delta-qp / no-aq-motion / no-hdr / no-hdr-opt / no-dhdr10-opt / no-idr-recovery-sei / analysis-reuse-level=5 / scale-factor=0 / refine-intra=0 / refine-inter=0 / refine-mv=0 / no-limit-sao / ctu-info=0 / no-lowpass-dct / refine-mv-type=0 / copy-pic=1 / max-ausize-factor=1.0 / no-dynamic-refine / no-single-sei
Язык : English
Default : Да
Forced : Нет
Цветовой диапазон : Limited
Основные цвета : BT.709
Характеристики трансфера : BT.709
Коэффициенты матрицы : BT.709

Аудио #1
Идентификатор : 2
Формат : AC-3
Формат/Информация : Audio Coding 3
Коммерческое название : Dolby Digital
Идентификатор кодека : A_AC3
Продолжительность : 1 ч. 52 м.
Вид битрейта : Постоянный
Битрейт : 640 Кбит/сек
Каналы : 6 каналов
Channel layout : L R C LFE Ls Rs
Частота : 48,0 КГц
Частота кадров : 31,250 кадров/сек (1536 SPF)
Битовая глубина : 16 бит
Метод сжатия : С потерями
Размер потока : 515 Мбайт (9%)
Заголовок : Дубляж
Язык : Russian
Default : Да
Forced : Нет

Аудио #2
Идентификатор : 3
Формат : AC-3
Формат/Информация : Audio Coding 3
Коммерческое название : Dolby Digital
Идентификатор кодека : A_AC3
Продолжительность : 1 ч. 52 м.
Вид битрейта : Постоянный
Битрейт : 640 Кбит/сек
Каналы : 6 каналов
Channel layout : L R C LFE Ls Rs
Частота : 48,0 КГц
Частота кадров : 31,250 кадров/сек (1536 SPF)
Битовая глубина : 16 бит
Метод сжатия : С потерями
Размер потока : 515 Мбайт (9%)
Заголовок : Оригинал
Язык : English
Default : Нет
Forced : Нет

Текст #1
Идентификатор : 4
Формат : UTF-8
Идентификатор кодека : S_TEXT/UTF8
Идентификатор кодека/Информация : UTF-8 Plain Text
Продолжительность : 1 ч. 41 м.
Битрейт : 2 бит/сек
ElementCount : 46
Размер потока : 1,56 Кбайт (0%)
Заголовок : Rus Forced
Язык : Russian
Default : Да
Forced : Да

Текст #2
Идентификатор : 5
Формат : UTF-8
Идентификатор кодека : S_TEXT/UTF8
Идентификатор кодека/Информация : UTF-8 Plain Text
Продолжительность : 1 ч. 51 м.
Битрейт : 122 бит/сек
ElementCount : 1877
Размер потока : 101 Кбайт (0%)
Заголовок : Rus Full
Язык : Russian
Default : Нет
Forced : Нет

Текст #3
Идентификатор : 6
Формат : UTF-8
Идентификатор кодека : S_TEXT/UTF8
Идентификатор кодека/Информация : UTF-8 Plain Text
Продолжительность : 1 ч. 51 м.
Битрейт : 77 бит/сек
ElementCount : 1886
Размер потока : 63,1 Кбайт (0%)
Заголовок : Eng Full
Язык : English
Default : Нет
Forced : Нет

Меню
00:00:00.000 : :00:00:00.000
00:04:09.666 : :00:04:09.666
00:11:07.417 : :00:11:07.417
00:17:28.923 : :00:17:28.923
00:23:43.881 : :00:23:43.881
00:27:54.589 : :00:27:54.589
00:34:18.806 : :00:34:18.807
00:41:39.956 : :00:41:39.956
00:51:27.709 : :00:51:27.709
00:58:04.606 : :00:58:04.606
01:01:50.957 : :01:01:50.957
01:06:17.306 : :01:06:17.306
01:12:31.806 : :01:12:31.806
01:19:10.120 : :01:19:10.120
01:27:24.030 : :01:27:24.030
01:38:26.775 : :01:38:26.775

pirat-bitru.gq



Скачать Ральф против интернета через торрент https://a.radikal.ru/a32/1904/55/ef8f471732d0.jpg Скачать фильм Ральф против интернета через торрент бесплантно в хорошем качестве Описание: На этот раз Ральф и Ванилопа фон Кекс выйдут за пределы зала игровых автоматов и отправятся покорять бескрайние просторы ... 9.8 10 5
Торрент: Зарегистрирован [2019-07-30 18:20] · скачан: 32 раз
Статус: √ проверено
Размер: 5.84 GB
Как cкачать? Как скачать Ральф против интернета через торрент | qTorrent

% Раздел Тема Автор DL S | L
Иностранные мультфильмы [ 1.46 GB ] Ральф против интернета / Ralph Breaks the Internet [2018 мультфильм BDRip-AVC] DUB [] bober100 Скачать
2 | 0
3D Мультфильмы [ 8.59 GB ] Ральф против интернета 3Д / Ralph Breaks the Internet 3D [2018 мультфильм BDRip 1080p] [Half OverUnder / Вертикальная анаморфная стереопара] DUB [] bober100 Скачать
1 | 0
Мультфильмы (48-60 fps) [ 23.7 GB ] Ральф против интернета / Ralph Breaks the Internet [2018 мультфильм BDRip 1080p 60 fps] sheker187 Скачать
1 | 0
Ultra HD (UHD: 2K, 4K, 8K) [ 8.53 GB ] Ральф против интернета / Ralph Breaks the Internet [2018 мультфильм UHD BDRip 2160p] DUB [] sheker187 Скачать
1 | 0
Иностранные мультфильмы [ 1.46 GB ] Ральф против интернета / Ralph Breaks the Internet [2018 мультфильм BDRip] DUB [ BD EUR] bober100 Скачать
9 | 0
Зарубежные Мультфильмы (BDRip 1080p, 720p, Blu-ray, BD-Remux) [ 4.31 GB ] Ральф против интернета / Ralph Breaks the Internet [2018 мультфильм BDRip 720p] DUB [] bober100 Скачать
4 | 0
Зарубежные Мультфильмы (BDRip 1080p, 720p, Blu-ray, BD-Remux) [ 7.49 GB ] Ральф против интернета / Ralph Breaks the Internet [2018 мультфильм BDRip 1080p] DUB [] bober100 Скачать
4 | 0


>> Регистрируемся здесь <<






Отзывы и комментарии о схеме читаем и пишем здесь: ---> Отзывы и комментарии о схеме

Новые благодарочки в телеграм довольных пользователей:
скриншот   скриншот   скриншот   скриншот   скриншот
    Дорогой пользователь! Огромная просьба, поблагодарите релизера, оцените раздачу и оставьте свои комментарий, если Вы скачали Ральф против интернета через торрент бесплатно! Внесите свою лепту в развитие PiratBit!
    Комментировать посты могут только пользователи прошедшие не сложную регистрацию
    Показать сообщения:    

    Ральф против интернета через торрент
    Скачать бесплатно Ральф против интернета
    Ральф против интернета скачать торрент
    Ральф против интернета смотреть онлайн
    Cкачать фильм Ральф против интернета бесплатно
    Ральф против интернета скачать торрент в хорошем качестве
    Ральф против интернета смотреть онлайн бесплатно в хорошем качестве


    Вы не можете начинать темы
    Вы не можете отвечать на сообщения
    Вы не можете редактировать свои сообщения
    Вы не можете удалять свои сообщения
    Вы не можете голосовать в опросах
    Вы не можете прикреплять файлы к сообщениям
    Вы можете скачивать файлы