iTunes

1+1

iTunes

мы

iTunes

1

iTunes

Чернобыль

1 сезон

Ральф против интернета

Лицензия

ПШазам

Лицензия

Игра престолов

Лицензия

30
pack

ВАЖНО

!!Акция!!

Alien_RageХит недели

RePack

Resident Evil 21

ИГРА 18+

pack

RePack

Metro:Exodus

!!Акция!!

Alien_Rage

RePack

fifa19

RePack

Assassins Creed: Odyssey

RePack

NEED FOR SPEED™ PAYBACK

3 сезон

9 сезон

Бесстыжие 9 сезон

Все сериалы

все сериалы на PB.wtf

RePack

FAR CRY 5
Ребята, катастрофически не хватает 7730р. для оплаты серверов за ИЮЛЬ (всвязи с блокировками трафик упал в 3 раза), 1-2р., выручайте.
  

Хроники Нарнии: Покоритель Зари / The Chronicles of Narnia: The Voyage of the Dawn Treader (Майкл Эптид / Michael Apted) [2010 г., фэнтези, приключения, семейный, BDRip - HEVC 1080p 10 bit 60 FPS] DUB pirat-bitru.gq

Хроники Нарнии: Покоритель Зари через торрент pirat-bitru.gq

Качают: 1 [ 0 KB/s ]
Размер: 4.34 GB | Добавлен: 11 д. назад | Торрент скачан:22 раза
Скачать  

11-08-2019 19:29 Хроники Нарнии: Покоритель Зари Скачать торрент  

Хроники Нарнии: Покоритель Зари / The Chronicles of Narnia: The Voyage of the Dawn Treader
««Назад в волшебство. Назад к надежде. Назад в Нарнию»»

Год выпуска: 2010
Страна: США
Жанр: фэнтези,
Продолжительность: 01:52:41
Субтитры: русские.
Режиссер: Майкл Аптед
В ролях:

Бен Барнс (Caspian), Скандар Кейнс (Edmund Pevensie), Джорджи Хенли (Lucy Pevensie), Уилл Поултер (Eustace Scrubb), Гари Свит (Drinian), Тильда Суинтон (The White Witch), Анна Попплуэлл (Susan Pevensie), Уильям Моусли (Peter Pevensie), Лиам Нисон (Aslan, озвучка), Саймон Пегг (Reepicheep, озвучка), Терри Норрис (Lord Bern), Брюс Спенс (Lord Rhoop)
Описание:
Эдмунд, Люси, их кузен Юстас и король Каспиан отплывают на корабле «Покоритель Зари» на поиски друзей отца Каспиана - семи лордов: Ревелиана, Берна, Аргоза, Мавроморна, Октезиана, Рестимара и Рупа, изгнанных во время недолгого правления тирана Мираза.
Мировая премьера: 2 декабря 2010

Качество: BDRip 1080p Rip by DD2D3
Формат: MKV
Видео: V_MPEGH/ISO/HEVC, 1920x1080 (16:9), 4002 kbps, 59,940 fps, 0,032 bpp
Аудио: русский / DTS / 5.1 / 48 kHz / 1509 kbps / 24 bit ||
Навигация по главам: есть


Общее
Уникальный идентификатор : 190031360843823845929221788270946481627 (0x8EF6B5755EC7A59D99A14954B820F5DB)
Полное имя : D:\Хроники Нарнии Покоритель Зари - The Chronicles of Narnia The Voyage of the Dawn Treader (2010) BDRip - HEVC 1080p 10 bit 60 FPS.mkv
Формат : Matroska
Версия формата : Version 4
Размер файла : 4,34 Гбайт
Продолжительность : 1 ч. 52 м.
Общий поток : 5515 Кбит/сек
Название фильма : Rip by DD2D3
Дата кодирования : UTC 2019-08-11 18:42:42
Программа кодирования : mkvmerge v10.0.0 ('To Drown In You') 32bit
Библиотека кодирования : libebml v1.3.4 + libmatroska v1.4.5
Attachments : poster

Видео
Идентификатор : 1
Формат : HEVC
Формат/Информация : High Efficiency Video Coding
Профиль формата : Main 10@L4.1@Main
Идентификатор кодека : V_MPEGH/ISO/HEVC
Продолжительность : 1 ч. 52 м.
Битрейт : 4002 Кбит/сек
Ширина : 1920 пикселей
Высота : 1080 пикселей
Соотношение сторон : 16:9
Режим частоты кадров : Постоянный
Частота кадров : 59,940 (60000/1001) кадров/сек
Цветовое пространство : YUV
Субдискретизация насыщенности : 4:2:0
Битовая глубина : 10 бит
Бит/(Пиксели*Кадры) : 0.032
Размер потока : 3,15 Гбайт (73%)
Библиотека кодирования : x265 2.3+33-0b7d54dbb71a87a0:[Windows][MSVC 1800][64 bit] 10bit: KG7x [x265.ru]
Настройки программы : cpuid=1173503 / frame-threads=2 / numa-pools=4 / wpp / no-pmode / no-pme / no-psnr / no-ssim / log-level=2 / input-csp=1 / input-res=1920x1080 / interlace=0 / total-frames=405236 / level-idc=41 / high-tier=1 / uhd-bd=0 / ref=3 / no-allow-non-conformance / no-repeat-headers / annexb / no-aud / no-hrd / info / hash=0 / no-temporal-layers / open-gop / min-keyint=25 / keyint=250 / bframes=4 / b-adapt=2 / b-pyramid / bframe-bias=0 / rc-lookahead=20 / lookahead-slices=6 / scenecut=40 / no-intra-refresh / ctu=64 / min-cu-size=8 / no-rect / no-amp / max-tu-size=32 / tu-inter-depth=1 / tu-intra-depth=1 / limit-tu=0 / rdoq-level=0 / dynamic-rd=0.00 / no-ssim-rd / signhide / no-tskip / nr-intra=0 / nr-inter=0 / no-constrained-intra / strong-intra-smoothing / max-merge=2 / limit-refs=3 / no-limit-modes / me=1 / subme=2 / merange=57 / temporal-mvp / weightp / no-weightb / no-analyze-src-pics / deblock=0:0 / no-sao / no-sao-non-deblock / rd=3 / no-early-skip / no-rskip / no-fast-intra / no-tskip-fast / no-cu-lossless / no-b-intra / rdpenalty=0 / psy-rd=4.00 / psy-rdoq=0.00 / no-rd-refine / analysis-mode=0 / no-lossless / cbqpoffs=0 / crqpoffs=0 / rc=abr / bitrate=4000 / qcomp=0.60 / qpstep=1 / stats-write=0 / stats-read=2 / cplxblur=20.0 / qblur=0.5 / ipratio=1.10 / pbratio=1.00 / aq-mode=0 / aq-strength=0.00 / no-cutree / zone-count=0 / no-strict-cbr / qg-size=64 / rc-grain / qpmax=69 / qpmin=0 / sar=1 / overscan=0 / videoformat=5 / range=0 / colorprim=2 / transfer=2 / colormatrix=2 / chromaloc=0 / display-window=0 / max-cll=0,0 / min-luma=0 / max-luma=1023 / log2-max-poc-lsb=8 / vui-timing-info / vui-hrd-info / slices=1 / opt-qp-pps / opt-ref-list-length-pps / no-multi-pass-opt-rps / scenecut-bias=0.05 / no-opt-cu-delta-qp / no-aq-motion / no-hdr / no-hdr-opt / refine-level=5 / no-limit-sao
Default : Да
Forced : Нет

Аудио
Идентификатор : 2
Формат : DTS
Формат/Информация : Digital Theater Systems
Идентификатор кодека : A_DTS
Продолжительность : 1 ч. 52 м.
Вид битрейта : Постоянный
Битрейт : 1509 Кбит/сек
Каналы : 6 каналов
Channel layout : C L R Ls Rs LFE
Частота : 48,0 КГц
Частота кадров : 93,750 кадра/сек (512 SPF)
Битовая глубина : 24 бит
Метод сжатия : С потерями
Размер потока : 1,19 Гбайт (27%)
Заголовок : RUS.DUB.DTS
Язык : Russian
Default : Да
Forced : Нет

Текст
Идентификатор : 3
Формат : UTF-8
Идентификатор кодека : S_TEXT/UTF8
Идентификатор кодека/Информация : UTF-8 Plain Text
Продолжительность : 1 ч. 51 м.
Битрейт : 45 бит/сек
ElementCount : 1300
Размер потока : 37,2 Кбайт (0%)
Заголовок : Rus.Subtitles.Full
Язык : Russian
Default : Нет
Forced : Нет

Меню
00:00:00.000 : en:Chapter 00
00:04:28.476 : en:Chapter 01
00:07:37.039 : en:Chapter 02
00:11:58.259 : en:Chapter 03
00:15:22.463 : en:Chapter 04
00:20:06.288 : en:Chapter 05
00:27:14.507 : en:Chapter 06
00:32:20.688 : en:Chapter 07
00:36:46.370 : en:Chapter 08
00:39:51.597 : en:Chapter 09
00:41:56.388 : en:Chapter 10
00:45:21.927 : en:Chapter 11
00:47:51.493 : en:Chapter 12
00:52:52.544 : en:Chapter 13
00:58:04.939 : en:Chapter 14
01:01:51.332 : en:Chapter 15
01:05:43.731 : en:Chapter 16
01:08:20.805 : en:Chapter 17
01:10:49.912 : en:Chapter 18
01:16:55.027 : en:Chapter 19
01:20:23.568 : en:Chapter 20
01:23:48.314 : en:Chapter 21
01:28:23.506 : en:Chapter 22
01:32:30.461 : en:Chapter 23
01:35:58.753 : en:Chapter 24
01:38:07.464 : en:Chapter 25
01:40:55.549 : en:Chapter 26
01:45:06.967 : en:Chapter 27
скриншот  скриншот  скриншот  скриншот  скриншот  

© Оформление by DD2D3 pirat-bitru.gq



Скачать Хроники Нарнии: Покоритель Зари через торрент https://funkyimg.com/i/2WaoZ.jpg Скачать фильм Хроники Нарнии: Покоритель Зари через торрент бесплантно в хорошем качестве Описание: Эдмунд, Люси, их кузен Юстас и король Каспиан отплывают на корабле «Покоритель Зари» на поиски друзей отца Каспиана - семи ... 10 10 2
Торрент: Зарегистрирован [2019-08-11 19:29] · скачан: 22 раз
Статус: √ проверено
Размер: 4.34 GB
Как cкачать? Как скачать Хроники Нарнии: Покоритель Зари через торрент | qTorrent


>> Регистрируемся здесь <<






Отзывы и комментарии о схеме читаем и пишем здесь: ---> Отзывы и комментарии о схеме

Новые благодарочки в телеграм довольных пользователей:
скриншот   скриншот   скриншот   скриншот   скриншот
    Дорогой пользователь! Огромная просьба, поблагодарите релизера, оцените раздачу и оставьте свои комментарий, если Вы скачали Хроники Нарнии: Покоритель Зари через торрент бесплатно! Внесите свою лепту в развитие PiratBit!
    Комментировать посты могут только пользователи прошедшие не сложную регистрацию
    Показать сообщения:    

    Хроники Нарнии: Покоритель Зари через торрент
    Скачать бесплатно Хроники Нарнии: Покоритель Зари
    Хроники Нарнии: Покоритель Зари скачать торрент
    Хроники Нарнии: Покоритель Зари смотреть онлайн
    Cкачать фильм Хроники Нарнии: Покоритель Зари бесплатно
    Хроники Нарнии: Покоритель Зари скачать торрент в хорошем качестве
    Хроники Нарнии: Покоритель Зари смотреть онлайн бесплатно в хорошем качестве


    Вы не можете начинать темы
    Вы не можете отвечать на сообщения
    Вы не можете редактировать свои сообщения
    Вы не можете удалять свои сообщения
    Вы не можете голосовать в опросах
    Вы не можете прикреплять файлы к сообщениям
    Вы можете скачивать файлы